<?xml version="1.0" standalone="no"?>
<!DOCTYPE svg PUBLIC "-//W3C//DTD SVG 1.1//EN" "http://www.w3.org/Graphics/SVG/1.1/DTD/svg11.dtd" >
<svg xmlns="http://www.w3.org/2000/svg">
<metadata></metadata>
<defs>
<font id="agency_fbregular" horiz-adv-x="819" >
<font-face units-per-em="2048" ascent="1638" descent="-410" />
<missing-glyph horiz-adv-x="401" />
<glyph horiz-adv-x="2048" />
<glyph horiz-adv-x="2048" />
<glyph unicode="&#xd;" horiz-adv-x="2048" />
<glyph unicode=" "  horiz-adv-x="401" />
<glyph unicode="&#x09;" horiz-adv-x="401" />
<glyph unicode="&#xa0;" horiz-adv-x="401" />
<glyph unicode="!" horiz-adv-x="408" d="M127 1565h154l-31 -1213h-92zM129 0v176h150v-176h-150z" />
<glyph unicode="&#x22;" horiz-adv-x="629" d="M96 1565h148l-31 -492h-86zM385 1565h145l-28 -492h-88z" />
<glyph unicode="#" horiz-adv-x="1067" d="M51 428v115h195l84 479h-207v115h227l76 428h127l-78 -428h242l74 428h127l-76 -428h174v-115h-195l-84 -479h207v-115h-227l-76 -428h-127l78 428h-242l-74 -428h-126l75 428h-174zM371 543h239l86 479h-241z" />
<glyph unicode="$" horiz-adv-x="850" d="M119 121v387h139v-381h104v645l-198 246q-45 56 -45 119v307q0 113 155 113q16 0 46 -1.5t42 -1.5v134h121v-134q13 0 43.5 1.5t47.5 1.5q155 0 155 -113v-354h-139v348h-107v-604l201 -244q45 -55 45 -117v-352q0 -113 -155 -113q-17 0 -47.5 1t-43.5 1v-133h-121v133 q-12 0 -42 -1t-46 -1q-155 0 -155 113zM258 1108l104 -133v463h-104v-330zM483 127h107v375l-107 129v-504z" />
<glyph unicode="%" horiz-adv-x="1372" d="M60 871v591q0 36 30 69.5t66 33.5h291q39 0 68.5 -32t29.5 -71v-591q0 -42 -28.5 -72t-69.5 -30h-291q-37 0 -66.5 32.5t-29.5 69.5zM181 881h243v567h-243v-567zM182 0v8l861 1557h114v-9l-860 -1556h-115zM799 102v591q0 36 30 69.5t66 33.5h291q39 0 68.5 -32 t29.5 -71v-591q0 -42 -28.5 -72t-69.5 -30h-291q-37 0 -66.5 32.5t-29.5 69.5zM920 112h243v567h-243v-567z" />
<glyph unicode="&#x26;" horiz-adv-x="891" d="M119 111v532q0 67 51 100l117 76q-55 33 -109 66q-55 43 -55 104v465q0 49 31 80t79 31h396q49 0 80.5 -31t31.5 -80v-328h-139v316h-342v-471l141 -94h449v-121h-115v-756h-506q-49 0 -79.5 31t-30.5 80zM256 123h342v633h-199l-143 -92v-541z" />
<glyph unicode="'" horiz-adv-x="340" d="M96 1565h148l-31 -492h-86z" />
<glyph unicode="(" horiz-adv-x="539" d="M104 682q0 480 248 883h121v-11q-122 -221 -175 -420q-54 -204 -54 -452t54 -452q53 -199 175 -420v-11h-121q-248 403 -248 883z" />
<glyph unicode=")" horiz-adv-x="539" d="M68 -190q122 221 174 420q55 204 55 452t-55 452q-52 199 -174 420v11h118q248 -403 248 -883t-248 -883h-118v11z" />
<glyph unicode="*" horiz-adv-x="813" d="M98 1143l240 102l-240 105l64 106l209 -151l-27 260h123l-25 -260l207 151l66 -106l-240 -105l240 -102l-66 -109l-207 154l25 -260h-123l27 260l-209 -154z" />
<glyph unicode="+" horiz-adv-x="838" d="M70 629v116h288v283h123v-283h288v-116h-288v-283h-123v283h-288z" />
<glyph unicode="," horiz-adv-x="340" d="M82 -111l29 287h155l-88 -287h-96z" />
<glyph unicode="-" horiz-adv-x="604" d="M96 535v124h412v-124h-412z" />
<glyph unicode="." horiz-adv-x="340" d="M94 0v176h152v-176h-152z" />
<glyph unicode="/" horiz-adv-x="885" d="M45 0v8l662 1557h133v-9l-662 -1556h-133z" />
<glyph unicode="0" horiz-adv-x="889" d="M125 111v1343q0 49 31 80t80 31h415q49 0 81 -31t32 -80v-1343q0 -49 -32 -80t-81 -31h-415q-49 0 -80 31t-31 80zM264 123h361v1319h-361v-1319z" />
<glyph unicode="1" horiz-adv-x="416" d="M80 1085v5l88 475h113v-1565h-140v1085h-61z" />
<glyph unicode="2" horiz-adv-x="799" d="M86 0v74l479 995v373h-319v-352h-140v364q0 49 31 80t80 31h377q49 0 80 -31t31 -80v-332q0 -60 -37 -137l-414 -862h453v-123h-621z" />
<glyph unicode="3" horiz-adv-x="864" d="M125 111v397h139v-385h346v479l-276 207v31l274 204v398h-342v-352h-139v364q0 49 31 80t80 31h399q49 0 80 -31t31 -80v-381q0 -75 -60 -117l-186 -131l188 -131q60 -41 60 -119v-464q0 -49 -31 -80t-80 -31h-403q-49 0 -80 31t-31 80z" />
<glyph unicode="4" horiz-adv-x="784" d="M43 408v71l379 1086h131v-6l-360 -1033h292v568h131v-568h119v-118h-119v-408h-131v408h-442z" />
<glyph unicode="5" horiz-adv-x="842" d="M121 111v397h139v-385h328v737h-463l18 705h572v-123h-436l-17 -459h354q49 0 80 -31t31 -80v-761q0 -49 -31 -80t-80 -31h-385q-49 0 -79.5 31t-30.5 80z" />
<glyph unicode="6" horiz-adv-x="868" d="M125 111v1343q0 49 31 80t80 31h395q49 0 79.5 -31t30.5 -80v-346h-139v334h-338v-580h371q49 0 79.5 -30.5t30.5 -79.5v-641q0 -49 -30.5 -80t-79.5 -31h-399q-49 0 -80 31t-31 80zM264 123h342v618h-342v-618z" />
<glyph unicode="7" horiz-adv-x="743" d="M72 1212v353h620v-72l-336 -1493h-137l326 1442h-334v-230h-139z" />
<glyph unicode="8" horiz-adv-x="883" d="M121 111v510q0 67 51 100l152 98l-148 92q-51 32 -51 101v442q0 49 31 80t80 31h405q49 0 80 -31t31 -80v-442q0 -69 -52 -101l-147 -92l149 -98q54 -35 54 -100v-510q0 -49 -32 -80t-81 -31h-412q-49 0 -79.5 31t-30.5 80zM260 123h356v518l-178 117l-178 -117v-518z M264 993l174 -116l174 116v449h-348v-449z" />
<glyph unicode="9" horiz-adv-x="868" d="M119 813v641q0 49 30.5 80t79.5 31h400q49 0 79.5 -31t30.5 -80v-1343q0 -49 -30.5 -80t-79.5 -31h-391q-49 0 -81 31t-32 80v346h139v-334h336v579h-371q-49 0 -79.5 31t-30.5 80zM258 823h342v619h-342v-619z" />
<glyph unicode=":" horiz-adv-x="340" d="M94 0v176h152v-176h-152zM94 676v176h152v-176h-152z" />
<glyph unicode=";" horiz-adv-x="340" d="M66 -111l28 287h158l-90 -287h-96zM94 676v176h152v-176h-152z" />
<glyph unicode="&#x3c;" horiz-adv-x="698" d="M76 618v72l508 379v-139l-371 -275l371 -274v-139h-6z" />
<glyph unicode="=" horiz-adv-x="903" d="M102 391v119h699v-119h-699zM102 756v121h699v-121h-699z" />
<glyph unicode="&#x3e;" horiz-adv-x="698" d="M115 242v139l370 274l-370 275v139h8l500 -379v-72z" />
<glyph unicode="?" horiz-adv-x="782" d="M90 1090v364q0 49 32 80t81 31h372q50 0 81.5 -31t31.5 -80v-352q0 -60 -31 -107l-204 -311v-332h-140v299q0 66 29 109l207 309v373h-320v-352h-139zM307 0v176h152v-176h-152z" />
<glyph unicode="@" horiz-adv-x="1155" d="M125 66v1433q0 66 65 66h775q65 0 65 -66v-1087q0 -66 -65 -66h-508q-72 0 -72 70v368q0 72 72 72h209v279h-172v-164h-101v184q0 72 72 72h229q72 0 72 -72v-733h188v1073h-753v-1425h829v-70h-840q-65 0 -65 66zM487 436h179v330h-179v-330z" />
<glyph unicode="A" d="M63 0v4l279 1565h137l277 -1569h-138l-55 348h-311l-55 -348h-134zM270 471h275l-137 848z" />
<glyph unicode="B" horiz-adv-x="870" d="M125 0v1565h512q49 0 80 -31t31 -80v-465q0 -62 -56 -104l-110 -66l118 -76q52 -32 52 -100v-532q0 -49 -31 -80t-80 -31h-516zM264 123h348v541l-141 92h-207v-633zM264 877h205l139 94v471h-344v-565z" />
<glyph unicode="C" horiz-adv-x="870" d="M125 111v1343q0 49 31 80t80 31h403q49 0 81 -31t32 -80v-364h-140v352h-348v-1319h348v385h140v-397q0 -49 -32 -80t-81 -31h-403q-49 0 -80 31t-31 80z" />
<glyph unicode="D" horiz-adv-x="889" d="M125 0v1565h358q125 0 206 -79.5t81 -203.5v-999q0 -124 -81.5 -203.5t-205.5 -79.5h-358zM264 123h185q81 0 131.5 46.5t50.5 127.5v973q0 77 -48.5 124.5t-125.5 47.5h-193v-1319z" />
<glyph unicode="E" horiz-adv-x="731" d="M125 0v1565h508v-123h-369v-584h336v-125h-336v-610h375v-123h-514z" />
<glyph unicode="F" horiz-adv-x="696" d="M125 0v1565h504v-123h-365v-594h336v-125h-336v-723h-139z" />
<glyph unicode="G" horiz-adv-x="881" d="M125 111v1343q0 49 31 80t80 31h411q49 0 80 -31t31 -80v-364h-140v352h-354v-1319h354v541h-167v120h307v-673q0 -49 -31 -80t-80 -31h-411q-49 0 -80 31t-31 80z" />
<glyph unicode="H" horiz-adv-x="905" d="M125 0v1565h139v-688h377v688h139v-1565h-139v752h-377v-752h-139z" />
<glyph unicode="I" horiz-adv-x="408" d="M133 0v1565h139v-1565h-139z" />
<glyph unicode="J" horiz-adv-x="801" d="M90 111v397h139v-385h308v1442h139v-1454q0 -49 -31 -80t-80 -31h-364q-49 0 -80 31t-31 80z" />
<glyph unicode="K" horiz-adv-x="788" d="M125 0v1565h139v-703l328 703h151v-9l-354 -745l389 -811h-153l-361 752v-752h-139z" />
<glyph unicode="L" horiz-adv-x="690" d="M125 0v1565h139v-1442h361v-123h-500z" />
<glyph unicode="M" horiz-adv-x="1024" d="M125 0v1565h129l254 -1018q2 -8 4 -45q0 15 4 45l254 1018h129v-1565h-131v991q0 21 14 123l-256 -967h-28l-256 967q14 -103 14 -123v-991h-131z" />
<glyph unicode="N" horiz-adv-x="895" d="M125 0v1565h104l410 -1131v1131h131v-1565h-96l-418 1151v-1151h-131z" />
<glyph unicode="O" horiz-adv-x="911" d="M125 111v1343q0 49 31 80t80 31h438q49 0 80.5 -31t31.5 -80v-1343q0 -49 -31.5 -80t-80.5 -31h-438q-49 0 -80 31t-31 80zM264 123h383v1319h-383v-1319z" />
<glyph unicode="P" horiz-adv-x="840" d="M125 0v1565h508q49 0 80.5 -31t31.5 -80v-721q0 -49 -31.5 -80.5t-80.5 -31.5h-369v-621h-139zM264 745h342v697h-342v-697z" />
<glyph unicode="Q" horiz-adv-x="922" d="M125 111v1343q0 49 31 80t80 31h440q49 0 79.5 -31t30.5 -80v-1233l107 -86v-137h-12l-103 84q-18 -82 -102 -82h-440q-49 0 -80 31t-31 80zM264 123h383v61l-166 138v137h13l153 -127v1110h-383v-1319z" />
<glyph unicode="R" horiz-adv-x="874" d="M125 0v1565h524q49 0 80 -31t31 -80v-594q0 -113 -152 -113q-15 0 -44 1.5t-42 1.5q135 -374 269 -750h-146l-291 838l19 28h248v576h-357v-1442h-139z" />
<glyph unicode="S" horiz-adv-x="856" d="M119 111v397h139v-385h338v373l-432 522q-45 54 -45 119v317q0 49 31.5 80t80.5 31h394q49 0 79.5 -31t30.5 -80v-364h-139v352h-338v-330l434 -522q43 -52 43 -117v-362q0 -49 -30.5 -80t-79.5 -31h-394q-49 0 -80.5 31t-31.5 80z" />
<glyph unicode="T" horiz-adv-x="702" d="M39 1442v123h625v-123h-242v-1442h-139v1442h-244z" />
<glyph unicode="U" horiz-adv-x="899" d="M125 111v1454h139v-1442h371v1442h139v-1454q0 -49 -31.5 -80t-80.5 -31h-426q-49 0 -80 31t-31 80z" />
<glyph unicode="V" horiz-adv-x="799" d="M63 1565h138l194 -1246l6 -102q1 35 7 102l194 1246h134l-271 -1569h-131z" />
<glyph unicode="W" horiz-adv-x="1122" d="M61 1565h138l133 -1129q1 -38 4 -112v14q0 37 4 98l162 1129h119l161 -1129q2 -38 4 -112q0 38 5 112l133 1129h137l-213 -1569h-113l-170 1180q-1 31 -4 92q0 -32 -4 -92l-170 -1180h-113z" />
<glyph unicode="X" horiz-adv-x="786" d="M43 0v8l279 793q-264 760 -263 764h146l188 -594l195 594h139v-9l-260 -747q278 -805 276 -809h-143l-209 643l-209 -643h-139z" />
<glyph unicode="Y" horiz-adv-x="799" d="M45 1556v9h141l215 -783l213 783h140v-9l-190 -633q-36 -95 -95 -317v-606h-139v606q-14 76 -43 160q-48 144 -52 157z" />
<glyph unicode="Z" horiz-adv-x="705" d="M49 0v74l440 1368h-397v123h557v-72l-440 -1370h440v-123h-600z" />
<glyph unicode="[" horiz-adv-x="594" d="M129 -137v1591q0 49 31 80t80 31h266v-123h-238v-1567h238v-123h-266q-49 0 -80 31t-31 80z" />
<glyph unicode="\" horiz-adv-x="885" d="M45 1565h133l662 -1565h-133z" />
<glyph unicode="]" horiz-adv-x="594" d="M88 -125h240v1567h-240v123h266q49 0 81 -31t32 -80v-1591q0 -49 -32 -80t-81 -31h-266v123z" />
<glyph unicode="^" d="M96 1012v8l262 545h105l260 -553h-113l-202 387l-203 -387h-109z" />
<glyph unicode="_" horiz-adv-x="739" d="M0 -299h739v-111h-739v111z" />
<glyph unicode="`" d="M289 1290v4h188l150 -229v-6h-92z" />
<glyph unicode="a" horiz-adv-x="768" d="M104 102v355q0 112 113 112h313v293h-286v-166h-129v164q0 113 112 113h320q112 0 112 -113v-860h-131v27q-79 -11 -158 -21q-98 -12 -157 -12q-109 0 -109 108zM233 115l297 6v344h-297v-350z" />
<glyph unicode="b" horiz-adv-x="776" d="M109 0v1565h133v-619l158 20q100 13 157 13q111 0 111 -109v-661q0 -90 -59 -149.5t-148 -59.5h-352zM242 117h184q109 0 109 112v625l-293 -8v-729z" />
<glyph unicode="c" horiz-adv-x="756" d="M109 113v747q0 113 112 113h316q112 0 112 -113v-194h-131v190h-276v-739h276v217h131v-221q0 -113 -112 -113h-316q-112 0 -112 113z" />
<glyph unicode="d" horiz-adv-x="772" d="M104 195v569q0 90 59 149.5t148 59.5h219v592h132v-1565h-132v27q-214 -33 -237 -33q-85 0 -137 57.5t-52 143.5zM236 223q0 -112 110 -112q26 0 184 10v735h-184q-110 0 -110 -113v-520z" />
<glyph unicode="e" horiz-adv-x="764" d="M109 113v747q0 113 112 113h320q112 0 112 -113v-350l-45 -47h-370v-352h286v178h129v-176q0 -113 -112 -113h-320q-112 0 -112 113zM238 569h286v293h-286v-293z" />
<glyph unicode="f" horiz-adv-x="487" d="M45 856v117h113v479q0 113 112 113h207v-117h-188v-475h166v-117h-166v-856h-131v856h-113z" />
<glyph unicode="g" horiz-adv-x="772" d="M104 209v569q0 86 52 143.5t137 57.5q23 0 237 -33v27h132v-1229q0 -113 -113 -113h-316q-115 0 -115 143q0 17 1.5 50.5t1.5 48.5h131v-129h278v256h-219q-89 0 -148 59.5t-59 149.5zM236 229q0 -112 110 -112h184v735q-158 10 -184 10q-110 0 -110 -112v-521z" />
<glyph unicode="h" horiz-adv-x="774" d="M109 0v1565h133v-619l158 20q100 13 157 13q111 0 111 -109v-870h-133v854l-293 -8v-846h-133z" />
<glyph unicode="i" horiz-adv-x="365" d="M115 1186v168h135v-168h-135zM117 0v973h131v-973h-131z" />
<glyph unicode="j" horiz-adv-x="365" d="M-31 -252h148v1225h131v-1229q0 -113 -113 -113h-166v117zM115 1186v168h135v-168h-135z" />
<glyph unicode="k" horiz-adv-x="686" d="M109 0v1565h133v-994l250 402h143v-4l-283 -430l303 -539h-145l-268 496v-496h-133z" />
<glyph unicode="l" horiz-adv-x="365" d="M117 0v1565h131v-1565h-131z" />
<glyph unicode="m" horiz-adv-x="1194" d="M109 0v973h133v-27q78 10 156 21q95 12 157 12q61 0 90 -37q84 11 167 23q109 14 165 14q110 0 110 -109v-870h-133v854l-290 -8v-846h-132v854l-290 -8v-846h-133z" />
<glyph unicode="n" horiz-adv-x="774" d="M109 0v973h133v-27q78 10 157 21q96 12 158 12q111 0 111 -109v-870h-133v854l-293 -8v-846h-133z" />
<glyph unicode="o" horiz-adv-x="776" d="M109 113v747q0 113 112 113h334q113 0 113 -113v-747q0 -113 -113 -113h-334q-112 0 -112 113zM242 117h293v739h-293v-739z" />
<glyph unicode="p" horiz-adv-x="772" d="M109 -369v1342h133v-27l158 20q100 13 157 13q111 0 111 -109v-661q0 -90 -59 -149.5t-148 -59.5h-219v-369h-133zM242 117h184q109 0 109 112v625l-293 -8v-729z" />
<glyph unicode="q" horiz-adv-x="772" d="M104 209v569q0 86 52 143.5t137 57.5q23 0 237 -33v27h132v-1342h-132v369h-219q-89 0 -148 59.5t-59 149.5zM236 229q0 -112 110 -112h184v735q-158 10 -184 10q-110 0 -110 -112v-521z" />
<glyph unicode="r" horiz-adv-x="678" d="M109 0v973h133v-27q66 10 133 21q80 12 133 12q110 0 110 -109v-217h-131v201l-245 -8v-846h-133z" />
<glyph unicode="s" horiz-adv-x="735" d="M102 113v221h131v-219h269v194l-348 285q-50 40 -50 104v162q0 113 113 113h301q113 0 113 -113v-194h-129v192h-269v-170l351 -285q49 -39 49 -106v-184q0 -113 -113 -113h-305q-113 0 -113 113z" />
<glyph unicode="t" horiz-adv-x="520" d="M41 856v117h117v303h131v-303h170v-117h-170v-739h170v-117h-189q-112 0 -112 113v743h-117z" />
<glyph unicode="u" horiz-adv-x="774" d="M109 102v871h131v-854l295 8v846h131v-973h-131v27q-80 -11 -159 -21q-96 -12 -159 -12q-108 0 -108 108z" />
<glyph unicode="v" horiz-adv-x="711" d="M53 973h137l166 -766l168 766h133l-241 -975h-121z" />
<glyph unicode="w" horiz-adv-x="1034" d="M55 973h125l137 -750l142 750h116l142 -750l137 750h125l-201 -975h-119l-143 739l-143 -739h-117z" />
<glyph unicode="x" horiz-adv-x="678" d="M41 0v4l227 496l-213 473h135l150 -357l154 357h129v-4l-213 -465l227 -504h-135l-164 385l-166 -385h-131z" />
<glyph unicode="y" horiz-adv-x="711" d="M53 973h137l166 -766l168 766h133l-234 -965l-97 -377h-131l98 377z" />
<glyph unicode="z" horiz-adv-x="655" d="M63 0v61l355 793h-318v119h475v-62l-356 -792h356v-119h-512z" />
<glyph unicode="{" horiz-adv-x="698" d="M63 676v29l168 155v500q0 89 58 147t147 58h174v-121q-13 0 -46.5 1.5t-51.5 1.5q-141 0 -141 -104v-464q0 -62 -49 -110q-51 -39 -101 -79q50 -39 101 -79q49 -48 49 -109v-529q0 -103 141 -103q18 0 51.5 1.5t46.5 1.5v-121h-174q-89 0 -147 58t-58 147v563z" />
<glyph unicode="|" horiz-adv-x="418" d="M145 -342v1907h127v-1907h-127z" />
<glyph unicode="}" horiz-adv-x="698" d="M88 -127q13 0 46.5 -1.5t51.5 -1.5q142 0 142 103v529q0 61 49 109q50 40 100 79q-50 40 -100 79q-49 48 -49 110v464q0 104 -142 104q-18 0 -51.5 -1.5t-46.5 -1.5v121h174q88 0 146.5 -58.5t58.5 -146.5v-500l168 -155v-29l-168 -156v-563q0 -88 -58.5 -146.5 t-146.5 -58.5h-174v121z" />
<glyph unicode="~" horiz-adv-x="1034" d="M170 465v209q0 86 82 86q51 0 104 -21l377 -143v158h131v-209q0 -86 -82 -86q-50 0 -104 20l-377 144v-158h-131z" />
<glyph unicode="&#xa1;" horiz-adv-x="408" d="M127 0l31 1212h92l31 -1212h-154zM129 1389v176h150v-176h-150z" />
<glyph unicode="&#xa2;" horiz-adv-x="756" d="M109 412v747q0 114 137 114h40q27 -1 40 -1v293h106v-293q13 0 40 1h39q138 0 138 -114v-194h-131v190h-86v-739h86v217h131v-221q0 -115 -138 -115q-13 0 -39.5 1t-39.5 1v-299h-106v299q-13 0 -40 -1t-40 -1q-137 0 -137 115zM242 416h84v739h-84v-739z" />
<glyph unicode="&#xa3;" horiz-adv-x="856" d="M61 0v123h115v567h-115v121h115v643q0 49 31 80t80 31h358q49 0 81 -31t32 -80v-364h-140v354h-305v-633h295v-121h-295v-567h457v-123h-709z" />
<glyph unicode="&#xa4;" horiz-adv-x="1221" d="M142 349l177 178v395l-177 177l118 118l194 -194h330l193 194l118 -118l-177 -178v-395l177 -177l-118 -118l-194 194h-330l-193 -194zM483 573l271 1v302h-271v-303z" />
<glyph unicode="&#xa5;" horiz-adv-x="799" d="M45 1565h141l215 -783l213 783h140v-9l-189 -626h172v-117h-207l-55 -182h262v-117h-268v-514h-139v514h-269v117h263l-56 182h-207v117h172q-189 631 -188 635z" />
<glyph unicode="&#xa6;" horiz-adv-x="397" d="M129 -409v826h139v-826h-139zM129 811v827h139v-827h-139z" />
<glyph unicode="&#xa7;" horiz-adv-x="854" d="M119 111v243h137v-235h344v241l-416 232q-65 36 -65 108v154q0 72 63 107l135 73l-133 74q-65 36 -65 109v237q0 49 31.5 80t80.5 31h394q49 0 79.5 -31t30.5 -80v-244h-135v236h-344v-242l414 -231q65 -37 65 -109v-153q0 -72 -63 -107l-133 -74l131 -73q65 -37 65 -109 v-237q0 -49 -30.5 -80t-79.5 -31h-394q-49 0 -80.5 31t-31.5 80zM248 690l180 -100l180 100v184l-180 101l-180 -101v-184z" />
<glyph unicode="&#xa8;" d="M207 1059v151h147v-151h-147zM465 1059v151h147v-151h-147z" />
<glyph unicode="&#xa9;" horiz-adv-x="1155" d="M125 66v1433q0 66 65 66h775q65 0 65 -66v-1433q0 -66 -65 -66h-775q-65 0 -65 66zM201 70h753v1425h-753v-1425zM385 416v739q0 72 74 72h237q72 0 72 -72v-211h-102v189h-179v-695h179v207h102v-229q0 -70 -72 -70h-237q-74 0 -74 70z" />
<glyph unicode="&#xaa;" horiz-adv-x="670" d="M113 559v98h444v-98h-444zM113 868v287q0 88 88 88h243v225h-215v-125h-110v132q0 90 90 90h256q92 0 92 -90v-689h-115v23q-228 -27 -243 -27q-86 0 -86 86zM221 885l223 6v262h-223v-268z" />
<glyph unicode="&#xab;" horiz-adv-x="915" d="M78 535v40l250 379h141v-8l-252 -391l252 -399h-141zM420 535v40l250 379h143v-8l-254 -391l254 -399h-143z" />
<glyph unicode="&#xac;" horiz-adv-x="942" d="M119 624v124h704v-416h-124v292h-580z" />
<glyph unicode="&#xad;" horiz-adv-x="604" d="M96 535v124h412v-124h-412z" />
<glyph unicode="&#xae;" horiz-adv-x="1155" d="M125 66v1433q0 66 65 66h775q65 0 65 -66v-1433q0 -66 -65 -66h-775q-65 0 -65 66zM201 70h753v1425h-753v-1425zM387 346v881h315q70 0 70 -72v-326q0 -51 -41 -64q-17 -5 -84 -5q145 -409 144 -414h-105l-162 471l21 31h127v287h-185v-789h-100z" />
<glyph unicode="&#xaf;" d="M188 1090v106h443v-106h-443z" />
<glyph unicode="&#xb0;" horiz-adv-x="668" d="M92 889v573q0 103 105 103h274q104 0 104 -103v-573q0 -103 -104 -103h-274q-105 0 -105 103zM205 887h256v577h-256v-577z" />
<glyph unicode="&#xb1;" horiz-adv-x="838" d="M68 190v123h704v-123h-704zM70 650v114h290v264h119v-264h289v-114h-289v-254h-119v254h-290z" />
<glyph unicode="&#xb2;" horiz-adv-x="634" d="M63 769v78l361 413v191h-226v-179h-119v162q0 53 35 92t88 39h212q57 0 93 -37t36 -94v-123q0 -83 -48 -136l-260 -289h336v-117h-508z" />
<glyph unicode="&#xb3;" horiz-adv-x="632" d="M71 890v130h115v-142h262v160l-183 113v67l169 99v136h-228v-129h-121v112q0 129 127 129h223q113 0 113 -111v-117q0 -56 -47 -94q-48 -30 -97 -59q55 -33 109 -66q50 -39 50 -105v-125q0 -48 -29.5 -83.5t-76.5 -35.5h-267q-119 0 -119 121z" />
<glyph unicode="&#xb4;" d="M188 1059v6l150 229h188v-4l-245 -231h-93z" />
<glyph unicode="&#xb6;" horiz-adv-x="948" d="M96 733v721q0 49 31 80t80 31h616v-1565h-133v621h-176v-621h-133v621h-174q-49 0 -80 31.5t-31 80.5zM424 745h266v697h-266v-697z" />
<glyph unicode="&#xb7;" horiz-adv-x="340" d="M94 522v178h152v-178h-152z" />
<glyph unicode="&#xb8;" d="M227 -176h105v-103h153v107q-45 22 -89 45q-44 29 -44 80v67h107v-69q45 -23 91 -46q42 -29 42 -81v-113q0 -80 -80 -80h-205q-80 0 -80 80v113z" />
<glyph unicode="&#xb9;" horiz-adv-x="397" d="M84 1167l87 398h97v-796h-131v398h-53z" />
<glyph unicode="&#xba;" horiz-adv-x="674" d="M113 559v98h448v-98h-448zM113 877v598q0 90 92 90h266q90 0 90 -90v-598q0 -91 -90 -91h-266q-92 0 -92 91zM225 887h224v577h-224v-577z" />
<glyph unicode="&#xbb;" horiz-adv-x="915" d="M104 156v8l252 391l-252 399h142l250 -379v-40l-250 -379h-142zM446 156v8l254 391l-254 399h144l248 -379v-40l-248 -379h-144z" />
<glyph unicode="&#xbc;" horiz-adv-x="1100" d="M29 0v8l861 1557h114v-9l-860 -1556h-115zM87 1167l87 398h97v-796h-131v398h-53zM573 193v85l192 518h121l-190 -499h200v275h118v-275h81v-104h-81v-193h-118v193h-323z" />
<glyph unicode="&#xbd;" horiz-adv-x="1088" d="M-36 2l861 1557h114v-9l-860 -1556h-115v8zM87 1167l87 398h97v-796h-131v398h-53zM567 0v78l361 413v191h-226v-179h-119v162q0 53 35 92t88 39h212q57 0 93 -37t36 -94v-123q0 -83 -48 -136l-260 -289h336v-117h-508z" />
<glyph unicode="&#xbe;" horiz-adv-x="1300" d="M41 890v130h115v-142h262v160l-183 113v67l169 99v136h-228v-129h-121v112q0 129 127 129h223q113 0 113 -111v-117q0 -56 -47 -94q-48 -30 -97 -59q55 -33 109 -66q50 -39 50 -105v-125q0 -48 -29.5 -83.5t-76.5 -35.5h-267q-119 0 -119 121zM201 0v8l861 1557h114v-9 l-860 -1556h-115zM715 193v85l192 518h121l-190 -499h200v275h118v-275h81v-104h-81v-193h-118v193h-323z" />
<glyph unicode="&#xbf;" horiz-adv-x="782" d="M94 111v352q0 60 31 106l205 312v331h139v-299q0 -65 -29 -108l-207 -309v-373h320v352h139v-364q0 -49 -31.5 -80t-80.5 -31h-373q-49 0 -81 31t-32 80zM324 1389v176h151v-176h-151z" />
<glyph unicode="&#xc0;" d="M63 0v4l279 1565h137l277 -1569h-138l-55 348h-311l-55 -348h-134zM176 1884v4h188l150 -229v-6h-92zM270 471h275l-137 848z" />
<glyph unicode="&#xc1;" d="M63 0v4l279 1565h137l277 -1569h-138l-55 348h-311l-55 -348h-134zM270 471h275l-137 848zM301 1653v6l150 229h188v-4l-245 -231h-93z" />
<glyph unicode="&#xc2;" d="M63 0v4l279 1565h137l277 -1569h-138l-55 348h-311l-55 -348h-134zM174 1638v8l197 227h78l196 -227v-8h-86l-151 117l-152 -117h-82zM270 471h275l-137 848z" />
<glyph unicode="&#xc3;" d="M63 0v4l279 1565h137l277 -1569h-138l-55 348h-311l-55 -348h-134zM193 1651v123q0 73 73 73q43 0 132 -36l122 -54v88h107v-123q0 -73 -74 -73q-43 0 -132 36l-122 54v-88h-106zM270 471h275l-137 848z" />
<glyph unicode="&#xc4;" d="M63 0v4l279 1565h137l277 -1569h-138l-55 348h-311l-55 -348h-134zM207 1653v151h147v-151h-147zM270 471h275l-137 848zM465 1653v151h147v-151h-147z" />
<glyph unicode="&#xc5;" d="M63 0v4l279 1565h137l277 -1569h-138l-55 348h-311l-55 -348h-134zM217 1588v188q0 93 92 93h201q92 0 92 -93v-188q0 -92 -92 -92h-201q-92 0 -92 92zM270 471h275l-137 848zM319 1588h181v188h-181v-188z" />
<glyph unicode="&#xc6;" horiz-adv-x="1137" d="M55 0v4l387 1561h596v-123h-362v-584h332v-125h-332v-610h368v-123h-505v348h-267l-84 -348h-133zM299 471h240v987z" />
<glyph unicode="&#xc7;" horiz-adv-x="870" d="M125 111v1343q0 49 31 80t80 31h403q49 0 81 -31t32 -80v-364h-140v352h-348v-1319h348v385h140v-397q0 -49 -32 -80t-81 -31h-403q-49 0 -80 31t-31 80zM257 -194h105v-103h153v107q-45 22 -89 45q-44 29 -44 80v67h107v-69q45 -23 91 -46q42 -29 42 -81v-113 q0 -80 -80 -80h-205q-80 0 -80 80v113z" />
<glyph unicode="&#xc8;" horiz-adv-x="731" d="M125 0v1565h508v-123h-369v-584h336v-125h-336v-610h375v-123h-514zM164 1884v4h188l150 -229v-6h-92z" />
<glyph unicode="&#xc9;" horiz-adv-x="731" d="M125 0v1565h508v-123h-369v-584h336v-125h-336v-610h375v-123h-514zM241 1653v6l150 229h188v-4l-245 -231h-93z" />
<glyph unicode="&#xca;" horiz-adv-x="731" d="M125 0v1565h508v-123h-369v-584h336v-125h-336v-610h375v-123h-514zM143 1653v8l197 227h78l196 -227v-8h-86l-151 117l-152 -117h-82z" />
<glyph unicode="&#xcb;" horiz-adv-x="731" d="M125 0v1565h508v-123h-369v-584h336v-125h-336v-610h375v-123h-514zM177 1653v151h147v-151h-147zM435 1653v151h147v-151h-147z" />
<glyph unicode="&#xcc;" horiz-adv-x="408" d="M-30 1884v4h188l150 -229v-6h-92zM133 0v1565h139v-1565h-139z" />
<glyph unicode="&#xcd;" horiz-adv-x="408" d="M94 1653v6l150 229h188v-4l-245 -231h-93zM133 0v1565h139v-1565h-139z" />
<glyph unicode="&#xce;" horiz-adv-x="408" d="M-32 1654v8l197 227h78l196 -227v-8h-86l-151 117l-152 -117h-82zM133 0v1565h139v-1565h-139z" />
<glyph unicode="&#xcf;" horiz-adv-x="408" d="M1 1653v151h147v-151h-147zM133 0v1565h139v-1565h-139zM259 1653v151h147v-151h-147z" />
<glyph unicode="&#xd0;" horiz-adv-x="889" d="M35 758v143h451v-143h-451zM125 0v1565h358q125 0 206 -79.5t81 -203.5v-999q0 -124 -81.5 -203.5t-205.5 -79.5h-358zM264 123h185q81 0 131.5 46.5t50.5 127.5v973q0 77 -48.5 124.5t-125.5 47.5h-193v-1319z" />
<glyph unicode="&#xd1;" horiz-adv-x="895" d="M125 0v1565h104l410 -1131v1131h131v-1565h-96l-418 1151v-1151h-131zM225 1653v123q0 73 73 73q43 0 132 -36l122 -54v88h107v-123q0 -73 -74 -73q-43 0 -132 36l-122 54v-88h-106z" />
<glyph unicode="&#xd2;" horiz-adv-x="911" d="M125 111v1343q0 49 31 80t80 31h438q49 0 80.5 -31t31.5 -80v-1343q0 -49 -31.5 -80t-80.5 -31h-438q-49 0 -80 31t-31 80zM228 1884v4h188l150 -229v-6h-92zM264 123h383v1319h-383v-1319z" />
<glyph unicode="&#xd3;" horiz-adv-x="911" d="M125 111v1343q0 49 31 80t80 31h438q49 0 80.5 -31t31.5 -80v-1343q0 -49 -31.5 -80t-80.5 -31h-438q-49 0 -80 31t-31 80zM264 123h383v1319h-383v-1319zM340 1653v6l150 229h188v-4l-245 -231h-93z" />
<glyph unicode="&#xd4;" horiz-adv-x="911" d="M125 111v1343q0 49 31 80t80 31h438q49 0 80.5 -31t31.5 -80v-1343q0 -49 -31.5 -80t-80.5 -31h-438q-49 0 -80 31t-31 80zM220 1653v8l197 227h78l196 -227v-8h-86l-151 117l-152 -117h-82zM264 123h383v1319h-383v-1319z" />
<glyph unicode="&#xd5;" horiz-adv-x="911" d="M125 111v1343q0 49 31 80t80 31h438q49 0 80.5 -31t31.5 -80v-1343q0 -49 -31.5 -80t-80.5 -31h-438q-49 0 -80 31t-31 80zM239 1653v123q0 73 73 73q43 0 132 -36l122 -54v88h107v-123q0 -73 -74 -73q-43 0 -132 36l-122 54v-88h-106zM264 123h383v1319h-383v-1319z" />
<glyph unicode="&#xd6;" horiz-adv-x="911" d="M125 111v1343q0 49 31 80t80 31h438q49 0 80.5 -31t31.5 -80v-1343q0 -49 -31.5 -80t-80.5 -31h-438q-49 0 -80 31t-31 80zM253 1653v151h147v-151h-147zM264 123h383v1319h-383v-1319zM511 1653v151h147v-151h-147z" />
<glyph unicode="&#xd7;" horiz-adv-x="942" d="M174 474l205 205l-204 204l92 91l204 -204l204 205l92 -92l-205 -204l204 -204l-92 -92l-204 205l-204 -205z" />
<glyph unicode="&#xd8;" horiz-adv-x="911" d="M18 0v133l875 1432v-133zM125 111v1343q0 49 31 80t80 31h438q49 0 80.5 -31t31.5 -80v-1343q0 -49 -31.5 -80t-80.5 -31h-438q-49 0 -80 31t-31 80zM264 123h383v1319h-383v-1319z" />
<glyph unicode="&#xd9;" horiz-adv-x="899" d="M125 111v1454h139v-1442h371v1442h139v-1454q0 -49 -31.5 -80t-80.5 -31h-426q-49 0 -80 31t-31 80zM228 1883v4h188l150 -229v-6h-92z" />
<glyph unicode="&#xda;" horiz-adv-x="899" d="M125 111v1454h139v-1442h371v1442h139v-1454q0 -49 -31.5 -80t-80.5 -31h-426q-49 0 -80 31t-31 80zM328 1652v6l150 229h188v-4l-245 -231h-93z" />
<glyph unicode="&#xdb;" horiz-adv-x="899" d="M125 111v1454h139v-1442h371v1442h139v-1454q0 -49 -31.5 -80t-80.5 -31h-426q-49 0 -80 31t-31 80zM214 1653v8l197 227h78l196 -227v-8h-86l-151 117l-152 -117h-82z" />
<glyph unicode="&#xdc;" horiz-adv-x="899" d="M125 111v1454h139v-1442h371v1442h139v-1454q0 -49 -31.5 -80t-80.5 -31h-426q-49 0 -80 31t-31 80zM247 1653v151h147v-151h-147zM505 1653v151h147v-151h-147z" />
<glyph unicode="&#xdd;" horiz-adv-x="799" d="M45 1556v9h141l215 -783l213 783h140v-9l-190 -633q-36 -95 -95 -317v-606h-139v606q-14 76 -43 160q-48 144 -52 157zM289 1638v6l150 229h188v-4l-245 -231h-93z" />
<glyph unicode="&#xde;" horiz-adv-x="840" d="M125 0v1565h139v-301h369q49 0 80.5 -31t31.5 -80v-721q0 -49 -31.5 -79.5t-80.5 -30.5h-369v-322h-139zM264 444h342v697h-342v-697z" />
<glyph unicode="&#xdf;" horiz-adv-x="788" d="M109 0v1565h360q90 0 148.5 -59.5t58.5 -149.5v-316q0 -79 -44 -126q-57 -46 -114 -93q59 -46 117 -92q43 -44 43 -127v-493q0 -109 -109 -109h-184v117h162v536l-164 152v33l162 149v348q0 113 -109 113h-194v-1448h-133z" />
<glyph unicode="&#xe0;" horiz-adv-x="768" d="M104 102v355q0 112 113 112h313v293h-286v-166h-129v164q0 113 112 113h320q112 0 112 -113v-860h-131v27q-79 -11 -158 -21q-98 -12 -157 -12q-109 0 -109 108zM169 1290v4h188l150 -229v-6h-92zM233 115l297 6v344h-297v-350z" />
<glyph unicode="&#xe1;" horiz-adv-x="768" d="M104 102v355q0 112 113 112h313v293h-286v-166h-129v164q0 113 112 113h320q112 0 112 -113v-860h-131v27q-79 -11 -158 -21q-98 -12 -157 -12q-109 0 -109 108zM233 115l297 6v344h-297v-350zM266 1059v6l150 229h188v-4l-245 -231h-93z" />
<glyph unicode="&#xe2;" horiz-adv-x="768" d="M104 102v355q0 112 113 112h313v293h-286v-166h-129v164q0 113 112 113h320q112 0 112 -113v-860h-131v27q-79 -11 -158 -21q-98 -12 -157 -12q-109 0 -109 108zM152 1059v8l197 227h78l196 -227v-8h-86l-151 117l-152 -117h-82zM233 115l297 6v344h-297v-350z" />
<glyph unicode="&#xe3;" horiz-adv-x="768" d="M104 102v355q0 112 113 112h313v293h-286v-166h-129v164q0 113 112 113h320q112 0 112 -113v-860h-131v27q-79 -11 -158 -21q-98 -12 -157 -12q-109 0 -109 108zM171 1059v123q0 73 73 73q43 0 132 -36l122 -54v88h107v-123q0 -73 -74 -73q-43 0 -132 36l-122 54v-88 h-106zM233 115l297 6v344h-297v-350z" />
<glyph unicode="&#xe4;" horiz-adv-x="768" d="M104 102v355q0 112 113 112h313v293h-286v-166h-129v164q0 113 112 113h320q112 0 112 -113v-860h-131v27q-79 -11 -158 -21q-98 -12 -157 -12q-109 0 -109 108zM185 1059v151h147v-151h-147zM233 115l297 6v344h-297v-350zM443 1059v151h147v-151h-147z" />
<glyph unicode="&#xe5;" horiz-adv-x="768" d="M104 102v355q0 112 113 112h313v293h-286v-166h-129v164q0 113 112 113h320q112 0 112 -113v-860h-131v27q-79 -11 -158 -21q-98 -12 -157 -12q-109 0 -109 108zM195 1151v188q0 93 92 93h201q92 0 92 -93v-188q0 -92 -92 -92h-201q-92 0 -92 92zM233 115l297 6v344h-297 v-350zM297 1151h181v188h-181v-188z" />
<glyph unicode="&#xe6;" horiz-adv-x="1169" d="M104 102v355q0 112 113 112h307v293h-280v-166h-129v164q0 113 112 113h721q113 0 113 -113v-352l-47 -45h-363v-352h281v178h129v-176q0 -113 -113 -113h-311q-54 0 -88 29q-311 -35 -336 -35q-109 0 -109 108zM233 109l291 8v348h-291v-356zM651 567h281v295h-281v-295 z" />
<glyph unicode="&#xe7;" horiz-adv-x="756" d="M109 113v747q0 113 112 113h316q112 0 112 -113v-194h-131v190h-276v-739h276v217h131v-221q0 -113 -112 -113h-316q-112 0 -112 113zM205 -196h105v-103h153v107q-45 22 -89 45q-44 29 -44 80v67h107v-69q45 -23 91 -46q42 -29 42 -81v-113q0 -80 -80 -80h-205 q-80 0 -80 80v113z" />
<glyph unicode="&#xe8;" horiz-adv-x="764" d="M109 113v747q0 113 112 113h320q112 0 112 -113v-350l-45 -47h-370v-352h286v178h129v-176q0 -113 -112 -113h-320q-112 0 -112 113zM164 1290v4h188l150 -229v-6h-92zM238 569h286v293h-286v-293z" />
<glyph unicode="&#xe9;" horiz-adv-x="764" d="M109 113v747q0 113 112 113h320q112 0 112 -113v-350l-45 -47h-370v-352h286v178h129v-176q0 -113 -112 -113h-320q-112 0 -112 113zM238 569h286v293h-286v-293zM255 1059v6l150 229h188v-4l-245 -231h-93z" />
<glyph unicode="&#xea;" horiz-adv-x="764" d="M109 113v747q0 113 112 113h320q112 0 112 -113v-350l-45 -47h-370v-352h286v178h129v-176q0 -113 -112 -113h-320q-112 0 -112 113zM146 1059v8l197 227h78l196 -227v-8h-86l-151 117l-152 -117h-82zM238 569h286v293h-286v-293z" />
<glyph unicode="&#xeb;" horiz-adv-x="764" d="M109 113v747q0 113 112 113h320q112 0 112 -113v-350l-45 -47h-370v-352h286v178h129v-176q0 -113 -112 -113h-320q-112 0 -112 113zM179 1059v151h147v-151h-147zM238 569h286v293h-286v-293zM437 1059v151h147v-151h-147z" />
<glyph unicode="&#xec;" horiz-adv-x="365" d="M-47 1290v4h188l150 -229v-6h-92zM117 0v973h131v-973h-131z" />
<glyph unicode="&#xed;" horiz-adv-x="365" d="M69 1059v6l150 229h188v-4l-245 -231h-93zM117 0v973h131v-973h-131z" />
<glyph unicode="&#xee;" horiz-adv-x="365" d="M-51 1044v8l197 227h78l196 -227v-8h-86l-151 117l-152 -117h-82zM117 0v973h131v-973h-131z" />
<glyph unicode="&#xef;" horiz-adv-x="365" d="M-20 1059v151h147v-151h-147zM117 0v973h131v-973h-131zM238 1059v151h147v-151h-147z" />
<glyph unicode="&#xf0;" horiz-adv-x="776" d="M109 113v747q0 113 112 113h318v180q-128 -36 -131 -35v123l131 37v172h-291v-197h-129v199q0 113 112 113h324q116 0 116 -145q0 -18 -1.5 -54.5t-1.5 -52.5q101 27 104 26v-120l-104 -29v-1077q0 -113 -113 -113h-334q-112 0 -112 113zM242 117h297v739h-297v-739z" />
<glyph unicode="&#xf1;" horiz-adv-x="774" d="M109 0v973h133v-27q78 10 157 21q96 12 158 12q111 0 111 -109v-870h-133v854l-293 -8v-846h-133zM171 1059v123q0 73 73 73q43 0 132 -36l122 -54v88h107v-123q0 -73 -74 -73q-43 0 -132 36l-122 54v-88h-106z" />
<glyph unicode="&#xf2;" horiz-adv-x="776" d="M109 113v747q0 113 112 113h334q113 0 113 -113v-747q0 -113 -113 -113h-334q-112 0 -112 113zM166 1290v4h188l150 -229v-6h-92zM242 117h293v739h-293v-739z" />
<glyph unicode="&#xf3;" horiz-adv-x="776" d="M109 113v747q0 113 112 113h334q113 0 113 -113v-747q0 -113 -113 -113h-334q-112 0 -112 113zM242 117h293v739h-293v-739zM268 1059v6l150 229h188v-4l-245 -231h-93z" />
<glyph unicode="&#xf4;" horiz-adv-x="776" d="M109 113v747q0 113 112 113h334q113 0 113 -113v-747q0 -113 -113 -113h-334q-112 0 -112 113zM155 1059v8l197 227h78l196 -227v-8h-86l-151 117l-152 -117h-82zM242 117h293v739h-293v-739z" />
<glyph unicode="&#xf5;" horiz-adv-x="776" d="M109 113v747q0 113 112 113h334q113 0 113 -113v-747q0 -113 -113 -113h-334q-112 0 -112 113zM172 1059v123q0 73 73 73q43 0 132 -36l122 -54v88h107v-123q0 -73 -74 -73q-43 0 -132 36l-122 54v-88h-106zM242 117h293v739h-293v-739z" />
<glyph unicode="&#xf6;" horiz-adv-x="776" d="M109 113v747q0 113 112 113h334q113 0 113 -113v-747q0 -113 -113 -113h-334q-112 0 -112 113zM186 1059v151h147v-151h-147zM242 117h293v739h-293v-739zM444 1059v151h147v-151h-147z" />
<glyph unicode="&#xf7;" horiz-adv-x="838" d="M70 625v126h698v-126h-698zM314 430q0 44 30.5 75.5t73.5 31.5q44 0 74.5 -31.5t30.5 -75.5t-30.5 -75t-74.5 -31q-43 0 -73.5 31t-30.5 75zM314 944q0 44 30.5 75t73.5 31q44 0 74.5 -31t30.5 -75t-30.5 -75.5t-74.5 -31.5q-43 0 -73.5 31.5t-30.5 75.5z" />
<glyph unicode="&#xf8;" horiz-adv-x="776" d="M18 0v102l746 873v-98zM109 113v747q0 113 112 113h334q113 0 113 -113v-747q0 -113 -113 -113h-334q-112 0 -112 113zM242 117h293v739h-293v-739z" />
<glyph unicode="&#xf9;" horiz-adv-x="774" d="M109 102v871h131v-854l295 8v846h131v-973h-131v27q-80 -11 -159 -21q-96 -12 -159 -12q-108 0 -108 108zM163 1290v4h188l150 -229v-6h-92z" />
<glyph unicode="&#xfa;" horiz-adv-x="774" d="M109 102v871h131v-854l295 8v846h131v-973h-131v27q-80 -11 -159 -21q-96 -12 -159 -12q-108 0 -108 108zM267 1059v6l150 229h188v-4l-245 -231h-93z" />
<glyph unicode="&#xfb;" horiz-adv-x="774" d="M109 102v871h131v-854l295 8v846h131v-973h-131v27q-80 -11 -159 -21q-96 -12 -159 -12q-108 0 -108 108zM154 1059v8l197 227h78l196 -227v-8h-86l-151 117l-152 -117h-82z" />
<glyph unicode="&#xfc;" horiz-adv-x="774" d="M109 102v871h131v-854l295 8v846h131v-973h-131v27q-80 -11 -159 -21q-96 -12 -159 -12q-108 0 -108 108zM185 1059v151h147v-151h-147zM443 1059v151h147v-151h-147z" />
<glyph unicode="&#xfd;" horiz-adv-x="711" d="M53 973h137l166 -766l168 766h133l-234 -965l-97 -377h-131l98 377zM253 1059v6l150 229h188v-4l-245 -231h-93z" />
<glyph unicode="&#xfe;" horiz-adv-x="772" d="M109 -369v1934h133v-619l158 20q100 13 157 13q111 0 111 -109v-661q0 -90 -59 -149.5t-148 -59.5h-219v-369h-133zM242 117h184q109 0 109 112v625l-293 -8v-729z" />
<glyph unicode="&#xff;" horiz-adv-x="711" d="M53 973h137l166 -766l168 766h133l-234 -965l-97 -377h-131l98 377zM154 1059v151h147v-151h-147zM412 1059v151h147v-151h-147z" />
<glyph unicode="&#x152;" horiz-adv-x="1208" d="M125 111v1343q0 49 31 80t80 31h874v-123h-365v-584h334v-125h-334v-610h371v-123h-880q-49 0 -80 31t-31 80zM264 123h342v1319h-342v-1319z" />
<glyph unicode="&#x153;" horiz-adv-x="1174" d="M109 113v747q0 113 112 113h731q113 0 113 -113v-350l-47 -47h-363v-352h283v178h127v-176q0 -113 -113 -113h-731q-112 0 -112 113zM240 111h290v751h-290v-751zM655 569h283v293h-283v-293z" />
<glyph unicode="&#x178;" horiz-adv-x="799" d="M45 1556v9h141l215 -783l213 783h140v-9l-190 -633q-36 -95 -95 -317v-606h-139v606q-14 76 -43 160q-48 144 -52 157zM197 1653v151h147v-151h-147zM455 1653v151h147v-151h-147z" />
<glyph unicode="&#x2c6;" d="M174 1059v8l197 227h78l196 -227v-8h-86l-151 117l-152 -117h-82z" />
<glyph unicode="&#x2dc;" d="M193 1059v123q0 73 73 73q43 0 132 -36l122 -54v88h107v-123q0 -73 -74 -73q-43 0 -132 36l-122 54v-88h-106z" />
<glyph unicode="&#x2000;" horiz-adv-x="944" />
<glyph unicode="&#x2001;" horiz-adv-x="1889" />
<glyph unicode="&#x2002;" horiz-adv-x="944" />
<glyph unicode="&#x2003;" horiz-adv-x="1889" />
<glyph unicode="&#x2004;" horiz-adv-x="629" />
<glyph unicode="&#x2005;" horiz-adv-x="472" />
<glyph unicode="&#x2006;" horiz-adv-x="314" />
<glyph unicode="&#x2007;" horiz-adv-x="314" />
<glyph unicode="&#x2008;" horiz-adv-x="236" />
<glyph unicode="&#x2009;" horiz-adv-x="377" />
<glyph unicode="&#x200a;" horiz-adv-x="104" />
<glyph unicode="&#x2010;" horiz-adv-x="604" d="M96 535v124h412v-124h-412z" />
<glyph unicode="&#x2011;" horiz-adv-x="604" d="M96 535v124h412v-124h-412z" />
<glyph unicode="&#x2012;" horiz-adv-x="604" d="M96 535v124h412v-124h-412z" />
<glyph unicode="&#x2013;" horiz-adv-x="870" d="M96 535v124h678v-124h-678z" />
<glyph unicode="&#x2014;" horiz-adv-x="1292" d="M96 535v124h1098v-124h-1098z" />
<glyph unicode="&#x2018;" horiz-adv-x="340" d="M68 1073l96 492h90l-37 -492h-149z" />
<glyph unicode="&#x2019;" horiz-adv-x="340" d="M88 1073l37 492h147l-94 -492h-90z" />
<glyph unicode="&#x201a;" horiz-adv-x="340" d="M70 -240l36 492h150l-96 -492h-90z" />
<glyph unicode="&#x201c;" horiz-adv-x="629" d="M68 1073l96 492h90l-37 -492h-149zM356 1073l95 492h90l-37 -492h-148z" />
<glyph unicode="&#x201d;" horiz-adv-x="629" d="M88 1073l37 492h147l-94 -492h-90zM375 1073l37 492h149l-96 -492h-90z" />
<glyph unicode="&#x201e;" horiz-adv-x="629" d="M88 -240l37 492h147l-94 -492h-90zM375 -240l37 492h149l-96 -492h-90z" />
<glyph unicode="&#x2022;" horiz-adv-x="864" d="M131 598v367q0 116 117 116h368q117 0 117 -116v-367q0 -117 -117 -117h-368q-117 0 -117 117z" />
<glyph unicode="&#x2026;" horiz-adv-x="1022" d="M94 0v176h152v-176h-152zM436 0v176h150v-176h-150zM776 0v176h150v-176h-150z" />
<glyph unicode="&#x202f;" horiz-adv-x="377" />
<glyph unicode="&#x2039;" horiz-adv-x="573" d="M78 535v40l250 379h141v-8l-252 -391l252 -399h-141z" />
<glyph unicode="&#x203a;" horiz-adv-x="573" d="M104 156v8l252 391l-252 399h142l250 -379v-40l-250 -379h-142z" />
<glyph unicode="&#x205f;" horiz-adv-x="472" />
<glyph unicode="&#x20ac;" horiz-adv-x="826" d="M53 591v119h92v166h-92v121h92v457q0 49 31 80t80 31h363q49 0 81 -31t32 -80v-264h-140v252h-308v-445h397v-121h-397v-166h397v-119h-397v-468h308v255h140v-267q0 -49 -32 -80t-81 -31h-363q-49 0 -80 31t-31 80v480h-92z" />
<glyph unicode="&#x2122;" horiz-adv-x="1116" d="M76 1475v90h377v-90h-142v-807h-94v807h-141zM557 668v897h90l137 -564l142 564h86v-897h-94v549l-117 -455h-33l-117 455v-549h-94z" />
<glyph unicode="&#x25fc;" horiz-adv-x="975" d="M0 0v975h975v-975h-975z" />
<glyph unicode="&#xfb01;" horiz-adv-x="872" d="M45 856v117h113v479q0 113 112 113h373q113 0 113 -113v-266h-131v262h-336v-475h467v-973h-131v856h-336v-856h-131v856h-113z" />
<glyph unicode="&#xfb02;" horiz-adv-x="872" d="M45 856v117h113v479q0 113 112 113h486v-1565h-131v1448h-336v-475h166v-117h-166v-856h-131v856h-113z" />
</font>
</defs>
</svg>
